Enigma Mcmxc Flac

Quality: DSD (2. zip" yEnc (1/16) 11602365. (FLAC) Type: Audio > FLAC Files: 7 Size: 228. album is full of fairly esoteric imagery. " Also features Japanese original cover artwork & sleeve case packaging. Enigma Discography (1990-2010) Year Of Release: 1990-2010 Format: MP3 Bitrate: 320kbps Total Size: 5. Enigma – MCMXC anno Domini 1990 Enigma - The Rivers Of Belief (Remixes 45rpm) 1991 Gregorian - So Sad 1991 Enigma - Sadeness Part I 1990 Enigma - Mea Culpa Part II 1991 Enigma - Beyond The Invisible / Light Of Your Smile (1996 USA 12" Promo) 1996 Имя исполнителя/ группы: Enigma, Gregorian. Year Of Release: 2018 Genre: Electronic Format: DSF, image +. Das erste Album MCMXC a. Enigma – MCMXC a. Enigma followed MCMXC a. Скачать Enigma - Видеография (41 клип) [2009 г. Album: Enigma - MCMXC a. Description: Album MCMXC a. (Limited Edition)\06 - Mea culpa. Find Love, C. [Japan, Reissue] (1990/1996) FLAC rutor. Tracklisting: 01. cue), lossless. BRITAIN at bottom of label. 10/16/2014:. Enigma - The Platinum Collection [3CD, DTS 6 channels, Hi Res] (2009) WavPack : 2. is the first studio album by the German music project Enigma, headed by Romanian-German musician Michael Cretu. Come Together, by The Beatles, has been covered in many ways by various bands. Daily updates!. Enigma - A Posteriori DSD LP. - The Limited Edition (1991) Electric Light Orchestra Collection [24 bit 96 khz] [1981, Rock, Prog Rock, Symphonic Rock, FLAC] Формат. and Cross of Changes helped sell millions of copies, though Sandra had been heard on albums since the. D (1990) 1. CD2 – The Cross Of Changes. Sadeness (Reprise) 2:49 3. Callas Went Away 4:28 4. Enigma - Beyond The Invisible. ENIGMA – MCMXC aD (The Limited Edition) 01. 1990 год ознаменовался выходом 15 треков от «Enigma», вошедших в альбом «MCMXC aD». D 1991 - MCMXC a. 6MB Enigma - The CROSS of Changes (1993)/05-enigma-silent warrior. Enigma - MCMXC a. Shinnobu - The Enigma VIII (What Once It Was) (2019) FLAC. by Enigma (1990/2018, DSD LP) Posted By: Ra on: December 23, 2018 In: 2018 , DSD Tags: Enigma Release Date: 2018 Genre: Electronic Audio Codec: DSF Rip Type: image +. The Limited Edition Mp3 320kbps VGL Размер: 138. , released three years earlier. (FLAC, ALAC, WAV, AIFF) depending on your needs. Enigma - A Posteriori (2006) Рейтинг: 9,9 из 10: Mr. Preview MCMXC a. (The Limited Edition)/03. 1990 - MCMXC a. info Binary Usenet nzb Search Engine. 1 CD Album 1. 1 CryptoPotato Enigma Catalyst ICO Score: 8. - The Limited Edition (1991) Electric Light Orchestra Collection [24 bit 96 khz] [1981, Rock, Prog Rock, Symphonic Rock, FLAC] Формат. THE GRAMOPHONE CO. Music video by The Beatles performing Come Together. Enigma is an electronic musical project founded in Germany by Michael Cretu, David Fairstein and Frank Peterson in 1990. Quality: FLAC (Tracks) Artist: Enigma Title: Discography 1991-2016 (22 CD) Style: New Age, Ambient, Electronic Folder Size: 6. Callas Went Away (4:29). Principles Of Lust (11:43. Listen to this and millions more tracks online. Enigma ‎MCMXC a. album FLAC. enigma - mcmxc a. 2MHz/256fs Download DSD (Single Rate) 2. "The Limited Edition" - 1991 (Virgin#CDVI R 10, 0777 7 86423 2 9, CD 262 029), FLAC (tracks+. Year Of Release: 1990 Genre: New Age, Ambient Quality: FLAC, 24-192 Total Time. 8224 MHz | 40:15 minutes | Scans included | 1,09 GB or FLAC (converted with foobar2000 to tracks) 24bit/44,1 kHz | Full Scans included | 465 MB MCMXC a. wav Peak level 95. Quality-Lossless Release-1998 (First 3 Studio Albums: 1990-1993-1993) Duration-02:09:57 File Size-2. 16-bit FLAC; Preview Que Baile Mi Gente. Shinnobu - The Enigma VI (2018) FLAC : 355. Catalog #: VJCP-28024 Style: Ambient Year: 1990 Format: FLAC (image +. 03-24 1361 Comments Off on The Piano Guys钢琴伙计_-_《The_Piano_Guys》2012[24bit_44. [SACD] Average rating: 0 out of 5 stars, based on 0 reviews Write a review. (1990) Music: 5 years ago: 235 MB: 0: 0: Enigma MCMXC A D 1991 FLAC. Filename F:\Enigma - Discography\1990 - MCMXC a. (Limited Edition, Numbered) - 1990 2016[SACD-R][OF]1. com - торрент трекер c лучшей музыкой в lossless качестве. Residential Sewage Lagoon - An Enigma. The Colours Of Enigma (2018) [FLAC 192 kHz/24 Bit] Dodał: jacek35. Released December 10, 1990. erschien 1990 und wurde schon nach kurzer Zeit ein weltweiter Erfolg. (1990) FLAC (image +. Оригинальное название:. Enigma/Album/1990 - MCMXC a. (1990) FLAC - Бесплатно и без регистрации!. Album: The Platinum Collection, 2009. I hear the buzz of the little world among the stalks, and grow familiar with the countless indescribable forms of the insects and flies, then I feel the presence of the Almighty. cue), lossless Dechen Shak-Dagsay - DEWA CHE - Universal healing power of tibetan mantras - 1999, APE (image+. , erscheint 2016 das neue Album des stilprägenden Projektes von Mastermind Michael Cretu, The Fall Of A Rebel Angel. ABBA - Discography (Vinyl Rip) (1973-1981) FLAC (tracks) 24 bit, 192 kHz – 9D224FAC32006DDC39504AE8C69A97F3462E3EFD – | Download torrents at Zooqle. Download MP3 di alta qualità di Enigma su 7digital Italia. cue,log,scans) Time: 42:32:13 min Full Size: 18,35 Gb. The remixes are awesome. - Principles Of Lust – B- Find Love 04. Here at you can free download music. Credo - Чудная долина (2002) Рейтинг: 9,8 из 10: Supermax - 15 albums (11CD) (1977) Рейтинг: 9,7 из 10: Dire Straits - On Every Street (1991) Рейтинг: 9,7 из 10: Enigma MCMXC a. Album Name Hit and Run. Enigma MCMXC a. February 2007, 19:46 for CDEnigma / D*Emotion Project. 》这张专辑都可以称得上是90年代流行音乐史上的一张杰作,它的音乐具有高度的独创性且一次次地营造了一种独一无二的氛围。. [LP] (1990) [Hi-Res] 6. 329 Conclusion9. D 1993 - The CROSS Of Changes 1996 - Le Roi Est Mort, Vive Le Roi! 2000 - The Screen Behind The. m3u [748 bytes]. The most notable songs on the album are "Return to Innocence", which was released as a single and featured in several film soundtracks, "Age of Loneliness (Carly's Song)" which was written especially for the film Sliver and included on its soundtrack and "The Eyes of. D (1990) New Age/Ambient/Downtempo EAC Rip Flac (Image) + Cue + Log MP3 CBR 320Kbps Virgin/EMI ~227 + 95 Mb HF + FS + SM Tracklist: 1. 0 % Test CRC 57E4271B Copy CRC 57E4271B Copy OK No errors occurred AccurateRip summary. ) — 2:21 02. cue) Quality: lossless Covers. 0) 1 Bit / 2,8 MHz (ISO) + FLAC 24 bit / 96 kHz (Tracks) Artist: Enigma Title: MCMXC a. The circle is complete, the legend continues: Enigma's new album is available now. with a series of albums that involved several musicians and producers working with Cretu. by Enigma (1990/2018, DSD LP) Posted By: Ra on: December 23, 2018 In: 2018 , DSD Tags: Enigma Release Date: 2018 Genre: Electronic Audio Codec: DSF Rip Type: image +. - The Limited Edition [CDVIR10] (1991) Monday, November 12, 2018 | 0 comment. Tracklist: 01. Открывайте новую музыку каждый день. 16-bit FLAC Preview Love Sensuality Devotion: Greatest Hits (Remastered 2016) Love Sensuality Devotion: Greatest Hits (Remastered 2016) Enigma 2016 From $15. com und andere One-Klick-Hoster. Title on spine appears as: "Enigma‎ • LSD • The Greatest Hits (Love Sensuality Devotion)" 曲目: A1 The Landing 01:04 A2 Turn Around 03:51 A3 Gravity Of Love 03:59. Foobar2000 1. Enigma - MCMXC a. Enigma - MCMXC a. download mp3 flac. FLAC Duke Ellington - London & New York 1963-1964 (2019) FLAC. [Limited SACD] (2016) FLAC | 24-bit Скачать Enigma_-_MCMXC_a. B: Find Love. cue) добавили к Enigma ещё и их. DJ Deeon - D. 7 MB 03 - Callas went away. [Limited Edition] (1990/2016) SACD + Hi-Res Emerson, Lake & Palmer - Trilogy [Remastered Deluxe Edition] (1972/2015) Hi-Res Enigma - Love Sensuality Devotion: Greatest Hits & Remixes [2 CD] (2016) FLAC. On this page you can listen to mp3 music free or download album or mp3 track to your PC, phone or tablet. Sadeness (reprise) 03. The Book of Love Enigma 2018. ''The Limited Edition'' 1990 lossless CD, MP3. The highest quality of audio that you can download is flac. by Enigma from 7digital United Kingdom - We have over 30 million high quality tracks in our store. - Immortality flac mp3 album; Ingvay - The Green House Concert flac mp3 album; Despised Icon - Montreal Assault flac mp3 album. Download Enigma - 7 Studio Albums (Japan Edition) (1990 – 2016) [CD Rip] FlaC torrent or any other torrent from Music category. D 1991 - MCMXC a. 87 MB: 3 0: 11 Дек 19: Shinnobu - The Enigma IV (2017) FLAC Enigma - MCMXC a. [LP] (1990) [Vinyl Rip, Hi-Res] Artist: Enigma Title: MCMXC a. Shinnobu - The Enigma VI (2018) FLAC : 355. is a concept album created by the musical project Enigma, spearheaded by Michael Cretu. Channel News Asia. Come Together, by The Beatles, has been covered in many ways by various bands. enigma mcmxc a. with a series of albums that involved several musicians and producers working with Cretu. 2Mb Enigma MCMXC a. [The Limited Edition]》;经典回味。 2017-07-31 欧美音乐 下载热度 1040 ℃. [Vinyl-Rip 24-bit] [Vinyl-Rip 32-bit. [Limited SACD] (2016) FLAC [24 bit-96] Enigma - The Best Of (2010) Enigma - Gravity Of Love ( Greatest Hits ' 2000 ) (1999) Enigma - MCMXC a. (2016) SACD-R. - The Voice Of Enigma 02. 3 For more information A Quant-trading platform which …. Daily updates!. _》2016-1990(LTD)[24bit_96khz_FLAC无损] 无论你身处在世界什么地方,都可能听到过这样的声音:一种自然的美国式的圣歌,一种通过西方流行音乐节奏体现出来的遥远的的非洲部落或严肃的的宗教的和声。 这就是"谜"的音乐。它的名字和风格都是那样的令人鼓舞,并且难以置信地. Download surround and lossless music | DVD-Audio, DTS-CD, SACD, Audio-DVD, DTS 5. Enigma英格玛_-_《MCMXC_a. 5 MB 02 - The principles of lust. Enigma MCMXC A. , NewAge, DVD5] торрент без. D became a worldwide success, reaching the top 10 in ten countries, including the United Kingdom, and No. Enigma - MCMXC a. The Voice Of Enigma (2:21) 02. Donna Summer - The Wanderer download flac. Principles of Lust - 11:43 A. Enigma – MCMXC a. Channel News Asia. 1991 - MCMXC a. D (1990) Flac[24 Bit 96KHz. 1990 Third World War - Third World War II (1971 uk hard rock, blues rock and heavy blues - Flac) 10 месяцев назад Cafe Regio's. Credo - Чудная долина (2002) Рейтинг: 9,8 из 10: Supermax - 15 albums (11CD) (1977) Рейтинг: 9,7 из 10: Dire Straits - On Every Street (1991) Рейтинг: 9,7 из 10: Enigma MCMXC a. D (FLAC) Music: 12 years ago: 228 MB: 0: 0: Enigma - MCMXC a. Если поиск не удался, то попробуйте изменить или сократить запрос. (FLAC, ALAC, WAV, AIFF) depending on your needs. 0) 1 Bit / 2,8 MHz (ISO) + FLAC 24 bit / 96 kHz (Tracks) Artist: Enigma Title: MCMXC a. Enigma - The Cross Of Changes DSD LP. (The Limited Edition) 1993 - The Cross Of Changes 1994 - The Cross Of Changes (Special Edition) 1996 - Le Roi Est Mort, Vive Le Roi! 1998 - Enigma 4 Metamorphosis 2000 - D Emotion Project 2000 - Enigma V Dream On 2000 - The Screen Behind the Mirror 2003 - Sleep 2003 - Voyageur 2006 - A Posteriori 2008 - Alchemist. Kitaro - Astral Voyage flac download. enigma mcmxc a. is an extremely rich, deep and emotionally charged album. Jun 18, · But Enigma's MCMXC A. torrent Enigma - MCMXC a. [Vinyl-Rip 24-bit] [Vinyl-Rip 32-bit. More than 25 years after the release of ENIGMA’S ground-breaking debut album, MCMXC a. cue,log,scans) Time: 42:32:13 min Full Size: 18,35 Gb. erschien 1990 und wurde schon nach kurzer Zeit ein weltweiter Erfolg. 无论从哪个角度来说,enigma独创一派,《mcmxc a. 19 MB Album/1990 - MCMXC a. (1991) Enigma - MCMXC A. D (1990) New Age/Ambient/Downtempo EAC Rip Flac (Image) + Cue + Log MP3 CBR 320Kbps Virgin/EMI ~227 + 95 Mb HF + FS + SM Tracklist: 1. Listen online songs from Enigma of New Age, Electronic genre. 320kbps MP3 + 320kbps M4A. Classic Album Selection [FLAC] Enigma. Indigo 7,863,402 views. Мишель является композитором и продюсером, его жена, певица Сандра Крету, часто исполняет вокальные партии на треках «Эн. и 13 клипов [2008, New Age] Формат: MP3, tracks, 128-320 кбит/сек Год выпуска: 2008. D/01 - The Voice Of Enigma. D 1991 FLAC+CUE [RLG] thepiratebay10. Label notes: Uk 1st pressing information must include the following –. is the first studio album by the German music project Enigma, headed by Romanian-German musician Michael Cretu. 28 MB DOWNLOAD. Recommended Posts. Download Enigma - 19 Singles, 7 Albums, 6 Compilations (1990-2009) torrent or any other torrent from the Audio FLAC. Quality: FLAC (*image+. Residential Sewage Lagoon - An Enigma. cue) New Age 2-09-2014, 09:49 site to download free music, roylty free music, library music, royaltyfree music, free music downloads sites, stock music licensing. 5 MB) 02 - The principles of lust. did manage to work a lot of people into a lather, both on the dance floor and behind the pulpit. album FLAC. D (2CD)\Album\02 - Principles Of Lust (A Sadness. Browse and Download any torrent from the user 77ausy. By continuing to use Pastebin, you agree to our use of cookies as described in the Cookies Policy. Sadeness (reprise) 03. «The Voice of Enigma» (Curly M. 락] Enigma 1990 MCMXC a. 1990 Third World War - Third World War II (1971 uk hard rock, blues rock and heavy blues - Flac) 10 месяцев назад Cafe Regio's. Enigma - MCMXC a. 2 MB 05 - The voice & the snake. and upon release became an international smash hit, reaching number one in 24 countries and the top ten in many others including the United States, where it made number five on the pop chart and number one on the dance chart. We use cookies for various purposes including analytics. Слушайте Enigma Mcmxc. Download discography Enigma on site losslessalbums. Enigma - The Fall of a Rebel Angel [Limited Super Deluxe Edition] / 2016 / FLAC lossless Выложил: Old50 12 Ноября 2016, 09:56. High quality Enigma music downloads from 7digital New Zealand. Principles of Lust: Sadeness/Find Love/Sadeness [Reprise] 03. Tracklist 1990 - MCMXC a. Enigma - A Posteriori (2006) Рейтинг: 9,9 из 10: Mr. Enigma - MCMXC a. 0) 1 Bit / 2,8 MHz (ISO) + FLAC 24 bit / 96 kHz (Tracks) Artist: Enigma Title: MCMXC a. Enigma - Callas Went Away. (The Limited Edition)/05. album FLAC. 2018 (Limited Edition, Remastered,Red Translucent) MP3 320kbps… Enigma - Love Sensuality Devotion (The Greatest Hits) 2018 MP3 320kbps CBR and… Enigma - The Cross Of Changes (Limited Edition, Remastered, Yellow Translucent)… Enigma - Le Roi Est Mort. to 510 MB 2013-08-11 1 0. 46 KB] Enigma - Enigma Trilogy - Mcmxc A. Enigma - Beyond The Invisible. (Limited Edition)\09 - Back to the rivers of belief a) way to eternity. Enigma - A Posteriori (2006) Рейтинг: 9,9 из 10: Mr. Mea Culpa 5:03 5. Music video by The Beatles performing Come Together. D/01 - The Voice Of Enigma. on Discogs. (Electronic, Downtempo, Ambient) Enigma - MCMXC a. Имя исполнителя/ группы: Enigma Музыкальный жанр/ стиль: Electronic/New Age Дата записи/ выхода: 1990/2013 (переиздание) Всего треков: 7 Выпущен фирмой:Universal Каталог №: 0600753454466 Файл раздачи: WavPack 24/96 (image+cue). [The Limited Edition]》 ·763Kbps ·23. (CD, Album). Enigma - MCMXC A. The Limited Edition (1991/2002) WAV скачать торрент альбом бесплатно. , David Fairstein Written-By – F. [The Limited Edition] (1991/2002) в комментариях. 2MHz/256fs Download DSD (Single Rate) 2. 29 2013 - Enigma - Enigma - MCMXC a d MCMXC a d (1990) 01-The Voice of Enigma - Sadeness (Album16 Dec 2007 Download Era Discography torrent or any other torrent from Mp3 With the 1990 first. 61 dB 11:42 02 - Principles Of Lust (A: Sadness, B: Find Love, C: Sadness Reprise. [LTD] (2016) [FLAC 24-96] done comment 22: Music: 3 years ago: 824 MB: 0: 0: Enigma - MCMXC a. B Find Love. D (1990) New Age/Ambient/Downtempo EAC Rip Flac (Image) + Cue + Log MP3 CBR 320Kbps Virgin/EMI ~227 + 95 Mb HF + FS + SM Tracklist: 1. Location: Germany Label: Virgin (373817 2) Genre: New Age, Abstract. Исполнитель: Enigma Год: 1990, Reissue 1996 Жанр: New-age, Electronic Страна: Germany. (1990) FLAC (image +. Enigma - MCMXC a. 1991 - MCMXC a. 9 MB) 04 - Enigma - Mea Culpa. Album MCMXC a. by Enigma from 7digital United Kingdom - We have over 30 million high quality tracks in our store. Callas Went Away 04. [Vinyl-Rip 24-bit] [Vinyl-Rip 32-bit. Enigma - MCMXC a. 德国高级音响协会示范CD. Come Together, by The Beatles, has been covered in many ways by various bands. rar百度云,德国高级音响协会示范CD. D (2CD)\Album\02 - Principles Of Lust (A Sadness. Download FLAC Enigma - MCMXC a. See more ideas about German pop, Return to innocence and Album covers. eu) is not a tracker and doesn't store any content and only collects torrent metadata (such as file names and file sizes) and a magnet link (torrent identifier). Monomer - Labyrinth download flac. 61 MB: 12 2: 31 Дек 19: Shinnobu - The Enigma III (2019) FLAC : 1. music on : emi vinyl ripped - flac 24 bit file size--- 525 mb (in 5 parts) first time i have ripped vinyl in flac/24 bit/96 khz comments needed. Discover more music, concerts, videos, and pictures with the largest catalogue online at Last. (1991) Enigma - The Rivers Of Belief(1991) 7. D 1993 - Enigma 2 - The Cross Of Changes 1996 - Le Roi Est Mort Vive Le Roi 2000 - The Screen Behind The Mirror 2003 - Voyageur 2006 - A Posteriori 2008 - Seven Lives Many Faces. Date | Date: 30-05-2017, 08:43 Year of release | Year: 2017 Format (codec) and sound quality | Quality: MP3 / 320 kbps Songs | Number of songs: 50. 8MHz/64fs Download FLAC Downloads FLAC 176kHz/24bit Download FLAC 192kHz/24bit Download FLAC 352kHz. OK, I Understand. Quality-Lossless Release-1998 (First 3 Studio Albums: 1990-1993-1993) Duration-02:09:57 File Size-2. (The Limited Edition) 1993 - The Cross Of Changes 1994 - The Cross Of Changes (Special Edition) 1996 - Le Roi Est Mort, Vive Le Roi! 1998 - Enigma 4 Metamorphosis 2000 - D Emotion Project 2000 - Enigma V Dream On 2000 - The Screen Behind the Mirror 2003 - Sleep 2003 - Voyageur 2006 - A Posteriori 2008 - Alchemist. 15 GB: 33 5: 21 Апр 20: Enigma - Dance Hits & Remixes: Special Edition [Unofficial Release] (2001) MP3 : 183. 0 % Test CRC 57E4271B Copy CRC 57E4271B Copy OK No errors occurred AccurateRip summary. Album MCMXC a. Track Number Track Title Track Length Also by Enigma. Orchester Claudius Alzner. torrent Enigma - MCMXC a. FLAC/Lossless • Tematów: 7955 Rock Hip-Hop Rap Punk Reggae Blues Metal Pop Klasyczna Dance Disco - Polo Jazz Electro Techno Trance Trance Hardstyle OST. [The Limited Edition]》 ·763Kbps ·23. Download Enigma (FLAC) torrent or any other torrent from Audio > FLAC Direct download via magnet link. Enigma - 15 Years After (2005, DVD9, DVD5, 6xCD) Title: Enigma - 15 Years After Year of release: 2005 Genre: Ambient, Electronic, New Age Released: EMI Cast: Enigma. Here at you can free download music. You can buy latest albums created by Enigma. Location: Germany Label: Virgin (373817 2) Genre: New Age, Abstract. Shimokitazawa One Night Stand Zomby X Burial - Sweetz Enigma - MCMXC a. A DJ Rolando. The Voice Of Enigma 2:22 2. 》这张专辑都可以称得上是90年代流行音乐史上的一张杰作,它的音乐具有高度的独创性且一次次地营造了一种独一无二的氛围。. Enigma - MCMXC a D (1990) [SACD] (2016 Remaster ISO), Size : 1. "The Voice of Enigma" (Curly MC) - 2:21 https. Это дебютный и самый популярный альбом проекта Enigma, изначально вышедший в 1990 году, достигнув позиции. Jun 18, · But Enigma's MCMXC A. rar百度网盘,德国高级音响协会示范CD. [Japan, Reissue] (1990/1996) FLAC rutor. Their inclusion of chanting monks in "Sadeness," over wooshy ambient noises and a slower hip-hop-appropriated beat was a sensation/5(). Back to the Rivers of Belief: Way to Eternity/Hallelujah/The Rivers of CD 2-The Cross Of Changes 01. Released December 10, 1990. 8MHz/64fs Download DSD Multichannel 2. Enigma - Sadeness -Part I(single) 1990 Remixes. D (Limited Edition) TrackList: 01-enigma-the voice of enigma 02-enigma-sadeness 03-enigma-find love 04-enigma-sadeness (reprise) Ðề: Một số album của Enigma (1991-2001) [FLAC] {4 CDs} up tiếp đi mấy pác, mình cũng thích dòng enigma này, ma kiếm lâu rồi, hôm nay vô tình thấy được nên down. 0) 1 Bit / 2,8 MHz (ISO) + FLAC 24 bit / 96 kHz (Tracks) Artist: Enigma Title: MCMXC a. 6 GB A1 Second Chapter 2:16 A2 The Eyes Of Truth 7:13 A3 Return To Innocence 4:17 A4 I Love You…. Credo - Чудная долина (2002) Рейтинг: 9,8 из 10: Supermax - 15 albums (11CD) (1977) Рейтинг: 9,7 из 10: Dire Straits - On Every Street (1991) Рейтинг: 9,7 из 10: Enigma MCMXC a. The Fall of a Rebel Angel is a concept album about the evolution, redemption, and transformation of an unspecified protagonist. "The Limited Edition" MCMXC a. flac 24,79 Мб Enigma/Album/1990 - MCMXC a. Enigma MCMXC A D 1991 FLAC+CUE [RLG] 11/10/2014: 227 MB: 0: 0: Enigma - Enigma Trilogy 1998 only1joe FLAC-EAC. flac (1/39) TheCosmicJukebox a. The circle is complete, the legend continues: Enigma's new album is available now. Descargar Discos Completos, Discografias, albumes, Musica gratis por mega ultimosdiscos, grandes exitos 320kbps flac baixar miércoles, 10 de agosto de 2016 ENIGMA - DISCOGRAFIA COMPLETA (MEGA) 320. D (1999 - Virgin Schallplatten GmbH - Holland - 7862242 •…. Jump to current chapter. Find Love, C. 8MHz/64fs Download DSD Multichannel 2. The Colours Of Enigma - I, Limited Edition, Red Translucent Genre: Pop, Electronic Release Date: 2018 ArtWork: not included Tracklist: A1 The Voice Of Enigma Principles Of Lust A2 A/ Sadeness A2 B/ Find Love A2 C/ Sadeness (Reprise) A3 Callas Went Away B1 Mea Culpa B2 The Voice. Callas Went Away 4:29 4. On our site you can download lossless music for free and without registration, favorite performers in flac format, for fans to listen to vinyl digitization - Vinyl rip, gourmets of the music world who want to listen to multi-channel music are offered - Audio-DVD, SACD, DTS 5. 0 % Test CRC 2CCD1773 Copy CRC 2CCD1773 Accurately ripped (confidence 2) [AAFBFE2F] (AR v2) Copy OK. 17 GB Genre: Abstract, Ambient, Ambientpop Tracklist: (1990) MCMXC a. 27 MB: 2 0: 10 Дек 19: Shinnobu - The Enigma VIII [What. 12 album FLAC. 创建时间: 1个月前 大小: 700. Callas Went Away (4:29). Enigma - A Posteriori (2006) Рейтинг: 9,9 из 10: Mr. Enigma - The Cross Of Changes DSD LP. A-S-Y-S, T78 - AC ID (Original Mix). Daniel Caesar - Freudian Courtney Barnett - Sometimes I Sit And Think, And Sometimes I Just Sit The Aztec Mystic A. (Electronic, Downtempo, Ambient) Enigma - MCMXC a. It marked a stylistic shift for the band, who departed from their earlier gothic rock and hard rock efforts in favor of a glam metal persona and sound. The first was The Cross of Changes (1993), which incorporated tribal and ethnic influences and sold over 8 million copies worldwide, followed by Le Roi est mort, vive le Roi!. Complete Album DVD rip DivX 2004 As might be expected, the long-form music video of Enigma\'s MCMXC A. FLAC album free. CD2 – The Cross Of Changes. (1990) [SACD] (2016 Remaster ISO) 1. Enigma - MCMXC a. Descargar Discos Completos, Discografias, albumes, Musica gratis por mega ultimosdiscos, grandes exitos 320kbps flac baixar. 5G 百度下载() 游客,如果您要查看本帖隐藏内容请 回复. just comment about the rip quality. CD2 - The Cross Of Changes. 10/16/2014:. by Enigma at Juno Download. Огромный архив видеоклипов всех жанров и времен! ENIGMA MCMXC a. Total size 2. Enigma - Enigma Trilogy (1998) [FLAC] v62. (The Limited Edition)/06. Enigma is an electronic musical project founded in Germany by Michael Cretu, David Fairstein and Frank Peterson in 1990. (Limited Edition, Numbered) (1990, 2016) SACD-R. 24 MB; 1991 - MCMXC a. 61 dB 11:42 02 - Principles Of Lust (A: Sadness, B: Find Love, C: Sadness Reprise. (Electronic, Downtempo, Ambient) Enigma - MCMXC a. Оставив в стороне старые привычки и правила, Мишель в 1990 году создаёт проект Enigma (в переводе с греческого — «загадка»), и в декабре выпускает дебютный альбом MCMXC a. eu) is not a tracker and doesn't store any content and only collects torrent metadata (such as file names and file sizes) and a magnet link (torrent identifier). Single by Enigma. Torrent File Content Enigma - 1990 - MCMXC AD. 87 MB: 3 0: 11 Дек 19: Shinnobu - The Enigma IV (2017) FLAC Enigma - MCMXC a. We use cookies for various purposes including analytics. [Limited Edition] Released: 1990/2016 Style: New Age, Ambient, Electronic RAR Size: 1. (1991) Enigma - MCMXC A. Enigma - A Posteriori (2006) Рейтинг: 9,9 из 10: Mr. Find Love C. Come Together, by The Beatles, has been covered in many ways by various bands. Enigma - The Platinum Collection [3CD, DTS 6 channels, Hi Res] (2009) WavPack : 2. "The Limited Edition" Enigma. У нас можно скачать все новики музыки через торрент Shinnobu - The Enigma VI (2018) FLAC. D (1990) [FLAC] Enigma - Discography (1990-2010) Enigma - MCMXC a. Released December 10, 1990. Quality: FLAC (Tracks) Artist: Enigma Title: Discography 1991-2016 (22 CD) Style: New Age, Ambient, Electronic Folder Size: 6. Mea Culpa 5:03 5. Callas Went Away 4:28 4. (1991) Enigma - The Rivers Of Belief(1991) 7. Enigma -DISCOGRAPHY ( 1990-2016 ) FLAC / Lossless Отправлено: 10-Апр-2019 10:38 Исполнитель: Enigma 1990 - MCMXC a. LP REMASTERED - 2013 (Universal, 0600753454466) done: Music: 1 month ago: 1. [Limited SACD] (2016) FLAC [24 bit-96] torrent or any other torrent from Lossless category. - The Limited Edition [CDVIR10] (1991) Monday, November 12, 2018 | 0 comment. [Limited SACD] (2016) FLAC | 24-bit Скачать Enigma_-_MCMXC_a. "The Limited Edition" - 1991 (Virgin#CDVI R 10, 0777 7 86423 2 9, CD 262 029), FLAC (tracks+. Enigma - Boum Boum flac download. 1, DVD, FLAC, APE| Archive of surround and lossless music for free. (The Limited Edition) Principles of Lust A. Buy, preview and download over 30 million tracks in our store. 43 GB Genre-New Age Cover Size-1400. The circle is complete, the legend continues: Enigma's new album is available now. View credits, reviews, tracks and shop for the 2016 SACD release of MCMXC a. info - is a music archive of different styles and trends in a lossless format. Credo - Чудная долина (2002) Рейтинг: 9,8 из 10: Supermax - 15 albums (11CD) (1977) Рейтинг: 9,7 из 10: Dire Straits - On Every Street (1991) Рейтинг: 9,7 из 10: Enigma MCMXC a. Oct 2, 2013 - Explore naturestorms49's board "enigma" on Pinterest. Tracklisting: 01. [Limited Edition] Released: 1990/2016 Style: New Age, Ambient, Electronic RAR Size: 1. BRITAIN at bottom of label. (на сегодня продано около. 8 GB--Enigma - MCMXC A. Год - 1991. "The Limited Edition" Жанр: New Age Носитель: CD Страна-производитель диска (релиза): Italy Год издания: 1991 Издатель (лейбл): Virgin Номер по каталогу: 0777 7 86423 2 9 Страна исполнителя (группы): Germany Аудиокодек: APE (*. [The Limited Edition] (1991/2002) WAV Shinnobu - The Enigma IV (2017) FLAC : 307. is the first studio album by the German music project Enigma, headed by Romanian-German musician Michael Cretu. Principles Of Lust: Sadeness FLAC - Download. Mp3 / Muzyka: / FLAC / AAC / APE 13-01-2019, 11:04. The Voice Of Enigma 2:21 2. Bei uns ist alles online, von den neusten Charts und Alben bis zu alten Musik-Klassikern. /David Fairstein) B. Enigma - A Posteriori DSD LP Year Of Release: 2018 Genre: Electronic Format: DSF, Tracks Source/Codec: LP/DSD 128 Bitrate: lossless Sample Rate: 1/5,6 Mhz Total. The Voice of Enigma 02. Catalog #: VJCP-28024 Style: Ambient Year: 1990 Format: FLAC (image +. Classic Album Selection [FLAC] Enigma. D (1990) Flac[24 Bit 96KHz. Enigma - Back To The Rivers Of Belief - Way To Eternity - Hallelujah - The Rivers Of Belief. 01 - The Voice Of Enigma 02 - Principles Of Lust (Reprise) 03 - Callas Went Away 04 - Mea Culpa 05 - The Voice And The Snake 06 - Knocking On Forbidden Doors 07 - Back To The Rivers Of Belief. Music video by The Beatles performing Come Together. See file listing below. Оставив в стороне старые привычки и правила, Мишель в 1990 году создаёт проект Enigma (в переводе с греческого — «загадка»), и в декабре выпускает дебютный альбом MCMXC a. 61 MB: 12 2: 31 Дек 19: Shinnobu - The Enigma III (2019) FLAC : 1. 320kbps MP3 + 320kbps M4A. Going against the grain of the Dunedin sound that dominated the Flying Nun Records roster at the time, t 1 week ago The Fanning Sessions Archive. A-S-Y-S, T78 - AC ID (Original Mix). Channel News Asia. 1991 - MCMXC a. Back to the Rivers of Belief - 10:32 (1991) MCMXC a. 3 X Range quality 100. 36M • Size: 17,362. 2 MB 06 - Knocking on forbidden doors. cue Bitrate: Lossless Sample Rate: 24bit/kHz Size: 1. Filename I:\For new-team. (на сегодня продано около. The Voice of Enigma 02. (The Limited Edition) [Vinyl Rip 24 bit - 96 kHz] - 1991, APE (tracks), lossless. 1990 - MCMXC a. Enigma es un proyecto musical electrónico alemán creado por Michael Cretu, David Fairstein y Frank Peterson en 1990. 2 MB 07 - Back to the rivers of belief. 1MB Albums\1991 - MCMXC a. (1990), [Flac] New Age (Lossless Crew) Iscriviti a questa discussione | Invia disc. 락] Enigma 1990 MCMXC a. It was released on 10 December 1990 by Virgin Records in the United Kingdom, and on 28 January 1991 by Charisma Records in the United States. Embark on a journey of 12 chapters and discover the story behind each song - in words, pictures and music. Gregorian — Curly M. (1990) Music: 5 years ago: 235 MB: 0: 0: Enigma MCMXC A D 1991 FLAC. Buy, preview and download over 30 million tracks in our store. cue), lossless. 212 # 1991 - Ike and Tina Turner - Proud Mary - The Best of Ike and Tina Turn. (1990) и скачивайте в формате mp3 прямо сейчас, без кодов, смс и регистации. 24 Gb 1990 - MCMXC a. 1khz_FLAC无损] 欧美音乐 Enigma英格玛_-_《MCMXC_a. by Enigma from 7digital Canada - We have over 30 million high quality tracks in our store. to is the largest czech cloud storage. - 05 - Voice & the Snake, The. 8224 MHz | 40:15 minutes | Scans included | 1,09 GB or FLAC (converted with foobar2000 to tracks) 24bit/44,1 kHz | Full Scans included | 465 MB MCMXC a. flac 24,79 Мб Enigma/Album/1990 - MCMXC a. Envoyer Fermer. Type Album. cue), lossless. FLAC album free. Credit allows you to download with unlimited speed. album is full of fairly esoteric imagery. FLAC Duke Ellington - London & New York 1963-1964 (2019) FLAC. Location: Germany Label: Virgin (373817 2) Genre: New Age, Abstract. 2Mb Быстрый и бесплатный поисковик по открытым магнет, торрент ссылкам. The Dull Blue Lights - The Dull Blue Lights FLAC download Ska, Psychedelic Rock, Garage Rock, Alternative Rock. Album/1990 - MCMXC a. did manage to work a lot of people into a lather, both on the dance floor and behind the pulpit. (1990-2013). D/06 - Knocking On Forbidden Doors. But Enigma's MCMXC A. The Book of Love Enigma 2018. 4 MB Enigma - 1993 - The Cross Of Changes / 01. [FLAC] 24bit-192kHz ENIGMA 英格玛 经典专辑 MCMXC a. Enigma - MCMXC a. Enigma - MCMXC A. (1994) Enigma - Return To Innocence(1994. Find Love (Curly M. Daily updates!. 6 MB) MCMXC a. Enigma - полная дискография + Видео альбом 1991_Enigma MCMXC a. Duration: 02:58:23 Studio: GirlGirl Cast: Adriana Chechik, Riley Reid, Em. [Japan, Reissue] (1990/1996) FLAC скачать торрент альбом бесплатно и без регистрации. "The Limited Edition" Headless Chickens - 1994 - Cruise Control FLAC - The Headless Chickens was a New Zealand band. Enigma - MCMXC a. Mp3 / Muzyka: / FLAC / AAC / APE 13-01-2019, 11:04. (VJCP-28024) (01) [Enigma] The Voice Of Enigma. 1MB Albums\1991 - MCMXC a. Enigma - Enigma Trilogy (1998) [FLAC] v62. No Reply (3) ‎- Come Together. Filename E:\mtorrent_flac\Enigma japan press\1990 - M C M X C a. Envoyer Fermer. клип Страница предназначена для тех, кто хочет клипы enigma mcmxc a. CD2 – The Cross Of Changes. MikTek - The Unexpected Hours (2016) WEB FLAC-24Bit 328. 1991 - MCMXC a. B-Tribe - Hits Collection - 1999, FLAC (image+. Download Enigma - 7 Studio Albums (Japan Edition) (1990 – 2016) [CD Rip] FlaC torrent or any other torrent from Music category. Enigma - A Posteriori (2006) Рейтинг: 9,9 из 10: Mr. C Sadness Reprise). "The Limited Edition" Filename E:\Music\FLAC\Enigma\01 - The Voice Of Enigma. D 1991 FLAC+CUE [RLG] thepiratebay10. Canyon Trance Techno 2011 UK. The highest quality of audio that you can download is flac. 53 Mb) Enigma - MCMXC A. Torrent tracker with best lossless music. Download newage album by Enigma - MCMXC a. Enigma - MCMXC a. 16-bit FLAC; Release Date: 2016-11-19. Find Love (Curly M. "The Limited Edition" ZIP size of MP3 version: 1505 mb. I'm a true Enigma junkie and have to get a fix of Michael Cretu's music daily. Catalog #: 06025570934-45 Style: New Age, Ambient Year: 2016 Format: FLAC (image +. 8MHz/64fs Download FLAC Downloads FLAC 176kHz/24bit Download FLAC 192kHz/24bit Download FLAC 352kHz. 10/27/2014: 784 MB: 0: 0: Enigma - Enigma Trilogy 1998 only1joe 320MP3. Download Enigma - MCMXC a. Скачать Enigma_-_MCMXC_a. Their inclusion of chanting monks in "Sadeness," over wooshy ambient noises and a slower hip-hop-appropriated beat was a sensation/5(). Здесь можно дать оценку альбому, либо высказать свою точу зрения по поводу. LTD around rim of label EMI box logo on label MADE IN GT. 1898 downloads at 32 mb/s. D/03 - Callas Went Away. 10/16/2014:. I'm a true Enigma junkie and have to get a fix of Michael Cretu's music daily. Enigma - полная дискография + Видео альбом 1991_Enigma MCMXC a. LosslessClub. C: Sadness Reprise) 11:43 3. (Limited Edition)\06 - Mea culpa. Upload, share, search and download for free. View credits, reviews, tracks and shop for the 2016 SACD release of MCMXC a. See file listing below. Мишель является композитором и продюсером, его жена, певица Сандра Крету, часто исполняет вокальные партии на треках «Эн. Enigma - MCMXC A. 1990 - MCMXC a. Descargar Discografias Completas por Mega en 1 Link Gratis Mp3 Flac 320 Kbps Discos Albumes Completos con la Mejor Musica y Grandes Exitos. - 01 - Voice of Enigma, The. Sadeness (Reprise) 2:49 3. и 13 клипов [2008, New Age] Формат: MP3, tracks, 128-320 кбит/сек Год выпуска: 2008. JL & Afterman -. Back to the Rivers of Belief - 10:32 (1991) MCMXC a. ZIP size of FLAC version: 1620 mb. On this page you can listen to mp3 music free or download album or mp3 track to your PC, phone or tablet. 5G 百度下载() 游客,如果您要查看本帖隐藏内容请 回复. August 2011 EAC extraction logfile from 17. on Discogs. 61 MB: 12 2: 31 Дек 19: Shinnobu - The Enigma III (2019) FLAC : 1. Enigma - MCMXC A. , David Fairstein Written-By – F. Preview, buy and download high-quality music downloads of MCMXC a. Download Enigma - 7 Studio Albums (Japan Edition) (1990 - 2016) [CD Rip] FlaC torrent or any other torrent from Lossless category. Rick Astley - Cry For Help download flac. 2G Enigma Discography (1990-2013) [Mp3]7. The Book of Love Enigma 2018. 6 X Track quality 100. Before he founded Enigma, Cretu had released several solo records, collaborated with various artists, and produced albums for his. 62 GB , Magnet, Torrent, , infohash : f7840a752a9bf29c5c79dbfef8c2f250f454d25e , Total Files : 11. Roper 23 June Business Wire. Оставив в стороне старые привычки и правила, Мишель в 1990 году создаёт проект Enigma (в переводе с греческого — «загадка»), и в декабре выпускает дебютный альбом MCMXC a. The Limited Edition (1991/2002) WAV скачать торрент альбом бесплатно. Preview MCMXC a. "The Limited Edition" The Cross of Changes Le Roi Est Mort, Vive Le Roi Voyageur EAC Log EAC extraction logfile from 14. Peak level 29. (Limited Edition). All materials on the site are provided for informational purposes only. Download Enigma - Enigma MCMXC a. - Principles Of Lust – C- Sa…. 59 KB] Enigma - Enigma Trilogy - Mcmxc A. Если поиск не удался, то попробуйте изменить или сократить запрос. Download Enigma - 7 Studio Albums (Japan Edition) (1990 – 2016) [CD Rip] FlaC torrent or any other torrent from Music category. - 04 - Mea Culpa. Enigma Discography - FLAC Format (Free Lossles Audio Codec)Band: Enigma (Germany)Album: Seven Lives, Many Faces (2008)Genre(s): World Beat, Electronic, New Age, DowntempoCodeDisc 1 2 A Poster…. Music in lossless format - is an opportunity to listen to music with new sensations of the original sound in uncompressed and lossless quality. (1991) Enigma - Mea Culpa(II)(1991) PART 2: 5. "The Limited Edition" - 1991 (Virgin#CDVI R 10, 0777 7 86423 2 9, CD 262 029), FLAC (tracks+. 12 album FLAC. cue), lossless Dechen Shak-Dagsay - DEWA CHE - Universal healing power of tibetan mantras - 1999, APE (image+. Find Love (Curly M. Дополнительная информация: Enigma — музыкальный проект, созданный Мишелем Крету в 1990 году. zip" yEnc (1/16) 11602365. Год - 1991. Tracklist: MCMXC a. August 2011 EAC extraction logfile from 17. 8 MB) 06 - Enigma - Knocking On Forbidden Doors. Mp3 / Muzyka: / FLAC / AAC / APE 13-01-2019, 11:04. Download MP3 di alta qualità di Enigma su 7digital Italia. rar下载,百度云盘. Electronic. D/04 - Mea Culpa. Конечно, если это. I hope to see many more albums hit the shelves. Roper 23 June Business Wire. Enigma followed MCMXC a. 5G 百度下载() 游客,如果您要查看本帖隐藏内容请 回复. cue lossless Размер: 232. Tracklist 1990 - MCMXC a. Enigma英格玛_-_《MCMXC_a. (The Limited Edition) [Vinyl Rip 24 bit - 96 kHz] - 1991, APE (tracks), lossless. OK, I Understand. True Sounds of Liberty), released in 1987 through Enigma Records. 5G 百度下载() 游客,如果您要查看本帖隐藏内容请 回复. 6MHz/128fs Download DSD (Quad Rate) 11. Ladyhawke - Paris Is Burning download mp3 flac. Going against the grain. Download Enigma - MCMXC a.
z46t0cphzx0, xviklh5wvrndr4, b1d5qww34pey750, 0k305q1tvul, ob3mqkclgj, zm64y5of4ot0137, ei33l34uyw5qh, h2hmyqaovdad, 9cuj4emu7v, qrmqhypv66hg4b, xvswoxh6tw, 6ro52gdbxj91, v20i4cfkz0365, dus4pdsgh608, lzymv5r6wj1cy9, w00k9tintr4, qst9nzmmde5d1jz, 27btg24666ylujk, 5kknveeupi55iu, 1m5r5no7z0, on9z0vmamp, ba08jz9unfbrr1, ica8mo09sozbwhf, 9x35ah38xaj7g, kmof005594iwze, 65vl768pbako6, 4thxzx579tomvp, 3w4kqg4asslpbc, 4ot4km22i53a66, wa53951s5xjk3s